[PPX]高达30周年CG剪辑纪念版PV(MV?)

题材是《逆袭的夏亚》,CG 来自 98 年的同名游戏,之所以选这个,明年的高达次回作是“UC”,时间线是在逆袭之后的。

アニメ作品「機動戦士ガンダム」シリーズの最新作「機動戦士ガンダムUC(ユニコーン)」の公開時期や方法が決定した。
B002TZRF5M.09._SCMZZZZZZZ_
まず2010年2月20日より東京、大阪、名古屋、福岡、札幌の一部の劇場で2週間、イベント上映という形で公開。
また、同日よりソニーコンピュータエンタテインメントが運営するPlayStationStoreにてネットワーク配信を実施。
その後、3月12日よりブルーレイディスク、及びDVDで販売される。
ブルーレイディスクには日本語音声のほか、英語吹き替え音声や日本語、英語、フランス語、スペイン語、中国語の字幕を収録。DVDには日本語音声と日本語、英語の字幕を収録。

视频格式是:

General
Complete name                    : E:Gundam30th~CCA.mp4
Format                           : MPEG-4
Format profile                   : Sony PSP
Codec ID                         : MSNV
File size                        : 123 MiB
Duration                         : 12mn 23s
Overall bit rate                 : 1 385 Kbps
Encoded date                     : UTC 2009-10-27 02:42:56
Tagged date                      : UTC 2009-10-27 02:42:56
Video
ID                               : 2
Format                           : AVC
Format/Info                      : Advanced Video Codec
Format profile                   : Main@L2.1
Format settings, CABAC           : Yes
Format settings, ReFrames        : 2 frames
Muxing mode                      : Container profile=Unknown@0.0
Codec ID                         : avc1
Codec ID/Info                    : Advanced Video Coding
Duration                         : 12mn 23s
Bit rate mode                    : Variable
Bit rate                         : 1 189 Kbps
Width                            : 480 pixels
Height                           : 270 pixels
Display aspect ratio             : 16:9
Frame rate mode                  : Constant
Frame rate                       : 29.970 fps
Resolution                       : 24 bits
Colorimetry                      : 4:2:0
Scan type                        : Progressive
Bits/(Pixel*Frame)               : 0.306
Stream size                      : 105 MiB (86%)
Language                         : English
Encoded date                     : UTC 2009-10-27 02:42:56
Tagged date                      : UTC 2009-10-27 02:42:56
Audio
ID                               : 1
Format                           : AAC
Format/Info                      : Advanced Audio Codec
Format version                   : Version 4
Format profile                   : LC
Format settings, SBR             : No
Codec ID                         : 40
Duration                         : 12mn 23s
Bit rate mode                    : Constant
Bit rate                         : 192 Kbps
Channel(s)                       : 2 channels
Channel positions                : L R
Sampling rate                    : 44.1 KHz
Resolution                       : 16 bits
Stream size                      : 17.0 MiB (14%)
Language                         : English
Encoded date                     : UTC 2009-10-27 02:42:56
Tagged date                      : UTC 2009-10-27 02:42:56

截图:

30cca_005b45d 30cca_015b25d 30cca_025b25d 30cca_035b25d 30cca_045b25d 30cca_055b25d 30cca_065b25d 30cca_075b25d 30cca_085b25d 30cca_095b25d 30cca_105b25d

下载:
http://f.ppxclub.com/103218-1-1 (可能查看论坛需要注册)